WK綜合論壇, WK综合论坛

查看:46 回復:1 發表於 2020-5-25 21:15:38
本主題由 212love 於 2020-5-25 11:30 解除高亮
累計簽到︰1999 天
連續簽到︰2 天
發表於 2020-5-23 08:44:14 | 顯示全部樓層 |閱讀模式
VIP精品區,資源無限好賺金任務區,輕松賺金幣
加入VIP,享受高級特權宣傳賺金又升級,超級棒

塘鵝之血 Pelican.Blood., [MKV / 10.14G] [複製鏈接]

影視分享
分類: 電影
題材: 劇情 
地區: 英國 
語言: 英语 
格式: MKV 
年份: 更早
資源: BT资源
1.jpg 7 q9 L" J8 U! y, v* f$ Y
; O6 d& r0 G' r8 y7 y. }
◎译  名 塘鹅之血! U6 ]/ g  ~8 A, ?) S% e9 ?7 G9 K& r
◎片  名 Pelican Blood9 N+ A. }3 P6 \" F1 a! K- I
◎年  代 2009: B) ?# a# N: Y+ u( r' p1 X$ \& A, P2 A
◎产  地 英国+ a) f& p% P( _4 e
◎类  别 剧情) R- @) U# ^; p9 x
◎语  言 English
  Y2 G" b8 u* L8 V1 r7 i◎上映日期 2009-12-01* U; {; G9 v, L# b1 M- c- z
◎IMDb评分 6.4/10 from 499 users& G3 b  f8 M+ j! H
◎IMDb链接 https://www.imdb.com/title/tt1305059
: J: G( {4 ^) r- y+ h◎豆瓣评分 7.4/10 from 118 users
+ u+ }8 _9 `) \◎豆瓣链接 https://movie.douban.com/subject/3285657/* A8 f$ d$ A6 O; [' T$ F2 k: t
◎片  长 95分钟
$ @* r$ F$ j( b* ~% D" f* ?◎导  演 Karl Golden9 D! k4 O$ ?& ^, N2 k3 i$ C
◎编  剧 Cris Cole
6 s1 I& A: C/ D+ a◎主  演 Harry Treadaway* K  U. I1 b: P/ K6 Y" {
      Emma Booth( b5 u* m# X0 f% f" r8 Y4 U* \; a& q( R
      Emma Clifford
" ^" o. q: n5 K6 Y, t
' h9 {. p# A9 `* M$ ], q$ L6 y6 [: e/ N! N3 c9 y9 M
◎标  签 英国 | 文艺 | 英国电影 | 爱情 | 塘鹅之血 | HarryTreadaway | 剧情 | Treadaway
4 Y2 |/ e6 j8 w: J
; ^3 A) O4 B" c; L: m◎简  介
0 R& `7 }( k* U# [1 G- D( i
8 d) S+ ^3 _; h3 _+ J" O- f# B( e  本片讲述了一个生活在伦敦的有趣年轻人的故事。
! N% u  \: r, X. D1 v2 o  (转自moviereleased)
: C' P2 S$ K0 w4 E, V  Pelican Blood tells the story of Nikko, a funny but left-of-center young man living in London. Following a disastrous break up with his girlfriend, Stevie, he's taking life one day at a time, throwing all his energy into his hobby: bird spotting Just as life becomes bearable, Stevie arrives back on the scene, causing a rift between Nikko and all his friends, who warn him she will destroy him. They are fully aware of how the couple first met: on a suicide website, pledging they will 'end it all together'. As their intense, disturbing and highly sexual connection resumes, the relationship between Nikko, Stevie, his friends and his hobby are thrown into questionable chaos. Pelican Blood is a funny and passionate look at the things that make us tick, and the things we tick off the list.
' u. d% c/ `1 g8 jVideo7 z4 T# A7 `: T
ID : 1
/ U4 N- f1 |% ?2 e9 r& nFormat : AVC
$ P. E3 c# S$ {. RFormat/Info : Advanced Video Codec
- z7 Q, z1 z" u  OFormat profile : [email protected]
( }1 r4 }' z" h: V& N3 G  {" c, \Format settings : CABAC / 4 Ref Frames& e3 h1 y% H) {$ P7 y
Format settings, CABAC : Yes
; g2 ?3 |5 D+ _! S7 }Format settings, Reference frames : 4 frames& L0 m7 h- S4 m7 I/ V- ~# X" D
Codec ID : V_MPEG4/ISO/AVC
0 B7 I: G3 i$ K8 X0 I" }" q4 eDuration : 1 h 38 min7 n" b6 O) p" {5 i1 s( g; Y, f  q9 a
Bit rate mode : Variable
4 Q& M7 q* |+ ^3 JBit rate : 14.1 Mb/s
) w# q/ G! U  W* |Maximum bit rate : 15.0 Mb/s
$ ^5 G; z% o3 l+ |Width : 1 920 pixels
1 J0 T4 k7 m9 ~: T8 m( x; Y0 e, UHeight : 1 040 pixels
8 t8 s8 f, `9 w0 mDisplay aspect ratio : 1.85:1' ~' i; K, L6 Q2 W6 T% `
Frame rate mode : Constant' s, G5 h) y3 `$ G6 h/ L. U# y1 ~2 q4 @
Frame rate : 24.000 FPS4 y& L; ?7 n$ e- `5 z, F; W
Color space : YUV
: f; f5 U6 B9 P5 n: BChroma subsampling : 4:2:0
9 c* u* P3 L( l( F, F+ [Bit depth : 8 bits
8 X3 E* i% L6 q  W& sScan type : Progressive
  w9 H6 }4 Q4 L6 n9 R7 KBits/(Pixel*Frame) : 0.2952 }0 R7 B1 R3 W: g, t5 Y1 F
Stream size : 9.70 GiB (96%)
0 W" b, a( E: I$ l# ?7 `3 TLanguage : English
! ]1 o. k5 v2 V7 q4 r7 X9 QDefault : Yes
5 E2 J* H' d( r" mForced : No! j$ K7 S4 H1 z2 L: {
Color range : Limited5 [4 m; G5 k' {* F
Color primaries : BT.709
5 [% h# t* {; A2 M7 STransfer characteristics : BT.7093 P3 f4 u9 g- c2 @( q
Matrix coefficients : BT.709
0 R1 `: U& C" g4 x! Q1 Y3 d
  ~0 g- j7 h9 D3 u; Y8 W9 ~' ]Audio
* E2 g3 ^( `  o4 wID : 2
9 M2 z+ Z' `' N% w" ?Format : E-AC-3: B+ a! E" `  g( f8 i3 u/ T
Format/Info : Enhanced AC-3
  H& o2 C6 A6 D: M* W5 p" z+ W4 t* DCommercial name : Dolby Digital Plus' [# y3 j+ d8 s$ T6 y
Codec ID : A_EAC3
% t+ F3 l( j! r  K! A! S2 |, @Duration : 1 h 38 min
2 X- `* u8 @0 _! q2 ~Bit rate mode : Constant( b& I* K6 s5 J3 ?
Bit rate : 640 kb/s+ @; Q) U; D! Y  K
Channel(s) : 6 channels2 f, R. B  k- W" J! t5 D
Channel layout : L R C LFE Ls Rs0 k+ Z* S# ]8 F7 H$ K4 J3 \) A
Sampling rate : 48.0 kHz; \8 W3 U) {7 x9 k7 i
Frame rate : 31.250 FPS (1536 SPF)
! m' l8 ^9 \$ i* f0 X& R) VCompression mode : Lossy
# p: I8 [& A3 b' U5 O; WStream size : 450 MiB (4%)
: z/ Z1 V. s5 {* jLanguage : English% s% m8 ]/ q5 G' E4 B
Service kind : Complete Main
: i) f) Z% E* B* C6 O$ {3 R7 wDefault : Yes/ H; b5 d$ X4 U+ j% B3 ?
Forced : No9 |4 S7 f0 ?; \

. M3 V  W2 Q7 F8 I. l$ oText$ i' J8 U. G# ^5 J- K; m# v
ID : 34 s' G1 x+ a% D5 j/ j9 b0 k6 W
Format : UTF-8
5 ?' ~5 ]; }* W" k( l" tCodec ID : S_TEXT/UTF8
& A, ?- `' I8 _4 ^Codec ID/Info : UTF-8 Plain Text9 M; j) O- J% p" v. ]7 W
Duration : 1 h 37 min9 S3 E0 N% I5 M6 e6 e
Bit rate : 41 b/s/ E3 j; c( {. {+ F
Count of elements : 12603 u& F7 t, U) W* l8 P
Stream size : 30.0 KiB (0%)% q- Q) A7 {: D/ {
Title : SDH1 x% {/ [) e) }( J
Language : English8 a3 |6 V/ m# K/ U$ M8 x1 T
Default : No
/ G* L! |. ]8 C( ^, Q; p- j& aForced : No
" ?$ L8 p: z* t1 z; H8 \& g
, f. E% p  r2 Y/ [
" d0 K! M5 }" Y1 q* e% \7 v

塘鵝之血. MKV.torrent

51.25 KB, 下載次數: 5

累計簽到︰2 天
連續簽到︰2 天
發表於 2020-5-25 21:15:38 | 顯示全部樓層
VIP精品區,資源無限好賺金任務區,輕松賺金幣
加入VIP,享受高級特權宣傳賺金又升級,超級棒
很讚的文章,謝謝咯!相信WK因為有你而更加精彩!

回復樓主 親!! 早上好! 心底有WK、心情就會飛翔,心中要個希望、笑容就會清爽!

 分享同時學會感恩,一句感謝的話語,就是最大的支持!  歡迎交流討論
您需要登錄後才可以回帖 登錄 | 立即注册

本版積分規則

c重要聲明:本論壇是以即時上載言論的方式運作,WK論壇對所有言論的真實性、立場及版權等,不負任何法律責任。而一切言論只代表發佈者個人意見,並非本網站之立場,讀者及用戶務必自行判斷內容之真實性。 由於本論壇受到「即時上載言論」運作方式所規限,故不能完全監察所有言論,若讀者及用戶發現有內容出現「真實性、立場及版權」等問題,請聯絡我們:[email protected]論壇有權刪除任何言論(刪除前或不會作事先警告及通知)| SiteMap[網站地圖]

發表新帖 返回頂部