WK綜合論壇, WK综合论坛

查看:234 回復:2 發表於 2020-5-25 21:15:16
本主題由 212love 於 2020-5-25 11:30 解除高亮
累計簽到︰1999 天
連續簽到︰2 天
發表於 2020-5-23 08:46:48 | 顯示全部樓層 |閱讀模式
VIP精品區,資源無限好賺金任務區,輕松賺金幣
加入VIP,享受高級特權宣傳賺金又升級,超級棒

俄羅斯套娃 Russian.Doll., [MKV / 4.85G] [複製鏈接]

影視分享
分類: 電影
題材: 劇情 驚悚 同性 
地區: 美國 
語言: 英语 
格式: MKV 
年份: 2016
資源: BT资源
7486fa033c171.png : q& e, h3 E7 _0 w4 p" B5 R( t; K
◎译  名 俄罗斯套娃, ^6 d* g' L9 a
◎片  名 Russian Doll3 y$ G9 v+ S; o% h6 j& F
◎年  代 20161 o- O8 V, @* H& W( R3 W% z
◎产  地 美国
3 n) G3 w1 Y( w; O◎类  别 剧情 / 惊悚 / 同性/ G1 X- r$ I5 k, V
◎语  言 英语
# _2 M9 {# C3 O% i! S◎IMDb评分 4.8/10 from 36 users
) U) B5 M3 t9 I! i- X- f◎IMDb链接 https://www.imdb.com/title/tt5138866
" \- F$ f2 @2 Q! S' K& P◎豆瓣评分 4.2/10 from 112 users. R& G' Q5 X& g
◎豆瓣链接 https://movie.douban.com/subject/30245293/  \; k5 q) x4 F! d: n' P
◎片  长 82分钟
4 w/ L" f7 o  L- U) j1 d+ r◎导  演 Ed Gaffney
9 L! r$ T& n) }  }5 x6 C0 Z: f◎编  剧 Ed Gaffney
' s5 [1 ?- j) x: f◎主  演 Kristine Sutherland
* L3 H: [$ z6 Z9 Y3 V- @; j      Marem Hassler
  y+ R7 H1 l, l1 b( D  O" @7 D      Aly Trasher
* U6 E; E0 [: _+ }+ J* [6 _2 S: w
: I" `% P5 L8 v, b7 F4 o9 C9 r% o# l
◎标  签 美国 | LGBT | 2016 | les | 同性 | 美国电影 | 电影 | 爱情
1 ^* s0 R# O' G9 W9 A& I6 L3 L+ g; Q/ W" `
◎简  介
7 j; A& [0 N0 U- I4 K" U; k0 \: B" B5 s+ {4 [/ l: d
  身处于命运十字路口的人哪8 w5 S" R! {; ~; ?, a2 ^
  如同俄罗斯套娃一般一层套一层却始终无法直视内心的真实
# N7 A' D, Z( f  由一本名为《俄罗斯套娃》剧本引发的失踪案,牵扯出一桩25年前的迷离案件。! {7 g" n3 g7 r* M1 S+ C) c
  女警官Ames因2年前妻子的离世,始终沉湎于过去,无法向前看。在通过女教师Faith的帮助下,) a. `8 N0 ]! @7 I
  对于案件有了巨大的突破,同时也情不自禁得被她所吸引。
3 ?9 P/ j+ d9 w" ~4 A  当揭开整个案件的真相,才知或许我们每个人都是“俄罗斯套娃”。
) d: E. K8 c% H: T  女警官x女教师的Cp,结局He请放心食用~& J: c" t) i+ q; v. p
  微博@亿万同人字幕组
7 a* Y, W, @& H- N. I  微博@橘里橘气字幕组
9 o3 H# T0 X' Y* c  S0 o# wVideo% P# r% N4 M, ~4 h/ r
ID : 19 c: q) I2 G5 m9 O3 w
Format : AVC0 w( e2 o! u+ c0 |# i
Format/Info : Advanced Video Codec0 T: S5 i& ]' M+ f
Format profile : [email protected]
+ ~8 @. c4 N6 B4 l* U5 dFormat settings : CABAC / 4 Ref Frames
" n! ~! @4 D4 E: `) ^  R$ F$ bFormat settings, CABAC : Yes
2 u8 l, o- x5 c! o- F  P+ HFormat settings, Reference frames : 4 frames! |+ }3 t- F% U( u; @4 ?
Codec ID : V_MPEG4/ISO/AVC
0 k; x/ [* p7 ]5 v8 ~Duration : 1 h 23 min% R% q5 ]- R. j9 I2 ?, t: s
Bit rate : 8 129 kb/s( t, W0 Y  x+ d1 q, S; e% T
Width : 1 920 pixels; C" q. ]9 T8 `( A! Y: v0 A
Height : 816 pixels' t4 P( o8 C- \( Q) [% r
Display aspect ratio : 2.35:1
* A; T6 M; N8 W/ v0 ]! X+ EFrame rate mode : Constant* |" m0 q3 M' s- F: ~5 x- }0 b
Frame rate : 23.976 (24000/1001/189150) FPS
6 w1 {$ x3 h4 |% l* y* f2 h1 QColor space : YUV
8 c6 ^' ~& g2 Y/ r9 yChroma subsampling : 4:2:05 W! Q% R& J% E; d
Bit depth : 8 bits+ Z1 M: X7 P$ y3 m+ h/ C6 `9 x
Scan type : Progressive# N- n4 r0 R" q" |
Bits/(Pixel*Frame) : 0.216( X5 ^' F4 f% O9 F% \- f
Stream size : 4.72 GiB (97%)) ?  ]6 ~1 u; f/ D) {* Q) V
Language : English( G% ~1 K! E2 a1 {$ r) I
Default : Yes% K3 [' G2 f4 Z& N. K
Forced : No7 L  I, J( v5 ?: u+ U% k: J# F
Color range : Limited- U* X3 O& N* W5 x+ J1 e
Color primaries : BT.709
3 w/ n' P6 \8 Q/ G; c2 V/ D0 DTransfer characteristics : BT.709: C" ~! I2 v' y! V; z2 b, w
Matrix coefficients : BT.7096 L' z# S& |( O! Z" K
  O; d+ e4 c! J5 k0 e
Audio
( G6 k- X: X3 I+ I# w8 a& nID : 2
% E5 W6 m0 `3 ?: |  I& g* AFormat : E-AC-3
& j2 V4 e. N7 w& zFormat/Info : Enhanced AC-3
1 l7 a5 Y, b/ _. \* yCommercial name : Dolby Digital Plus/ |5 K: V2 R+ J, i+ N) M  `$ D3 _$ p0 L
Codec ID : A_EAC3: @, w; U9 ]7 R$ k
Duration : 1 h 23 min/ e6 N0 P% B8 P5 [) C) R) w
Bit rate mode : Constant/ [: R) h! m+ M0 t& V! `6 f
Bit rate : 224 kb/s
1 O& C! G+ `8 P9 a) IChannel(s) : 2 channels, T5 ~. |' N2 s+ p
Channel layout : L R
7 Y) h1 o0 w8 H0 g! c9 _4 aSampling rate : 48.0 kHz
6 z1 i: s6 D2 E; c! y6 }6 k( FFrame rate : 31.250 FPS (1536 SPF)6 E8 F- V+ z# V6 {/ T4 n
Compression mode : Lossy
& i1 r" i* d, F' ^% F. n) oStream size : 133 MiB (3%)' |9 B2 z2 q, B& a8 d" f. X) n) M& I
Language : English
4 y  d+ h# y5 e+ v. x& aService kind : Complete Main
6 S' ]3 F5 D. X4 H. c% y) b2 kDefault : Yes; C2 u3 f" M1 f! A; g1 H$ j$ c
Forced : No' i# e0 X4 j' m0 R$ u
8 B+ ?) y0 e+ _' ~
Text
! E3 t: ], }# ?# `% l( P6 TID : 3
* U' j: z8 b2 m& p; H# fFormat : UTF-8: @0 x$ p% v/ `* Y9 P- y3 p
Codec ID : S_TEXT/UTF8
2 M6 C5 H5 A' h' `4 c1 eCodec ID/Info : UTF-8 Plain Text/ d+ ]3 H9 k' L
Duration : 1 h 21 min
; `( [! {3 r5 {5 m& D, nBit rate : 60 b/s* n* Q' x+ I3 X0 U7 S
Count of elements : 1192
2 V4 P% O; A6 b* t0 Z) s1 w/ WStream size : 36.3 KiB (0%)7 G! Z3 q- W0 L, w7 M9 C8 C1 I8 f
Title : SDH
: R# j4 K2 g5 h  ?Language : English
/ q0 a1 |  |4 m! J3 J$ I* gDefault : No4 _) `2 P, a' S  O0 e4 X
Forced : No

, K  R/ Y3 R$ w7 S) u8 D' b& [4 j4 S0 ~" L/ u- h
2 o) ?/ }* C8 P+ v/ _! T* H

俄羅斯套娃. MKV.torrent

49.08 KB, 下載次數: 53

累計簽到︰311 天
連續簽到︰6 天
發表於 2020-5-24 06:33:15 | 顯示全部樓層
VIP精品區,資源無限好賺金任務區,輕松賺金幣
加入VIP,享受高級特權宣傳賺金又升級,超級棒
感謝大大的辛勞分享!我會繼續在WK關注大大的文章!
累計簽到︰2 天
連續簽到︰2 天
發表於 2020-5-25 21:15:16 | 顯示全部樓層
很讚的文章,謝謝咯!相信WK因為有你而更加精彩!

回復樓主 親!! 早上好! 心底有WK、心情就會飛翔,心中要個希望、笑容就會清爽!

 分享同時學會感恩,一句感謝的話語,就是最大的支持!  歡迎交流討論
您需要登錄後才可以回帖 登錄 | 立即注册

本版積分規則

c重要聲明:本論壇是以即時上載言論的方式運作,WK論壇對所有言論的真實性、立場及版權等,不負任何法律責任。而一切言論只代表發佈者個人意見,並非本網站之立場,讀者及用戶務必自行判斷內容之真實性。 由於本論壇受到「即時上載言論」運作方式所規限,故不能完全監察所有言論,若讀者及用戶發現有內容出現「真實性、立場及版權」等問題,請聯絡我們:[email protected]論壇有權刪除任何言論(刪除前或不會作事先警告及通知)| SiteMap[網站地圖]

發表新帖 返回頂部