WK綜合論壇, WK综合论坛

查看:91 回復:3 發表於 5 天前
本主題由 212love 於 3 天前 解除高亮
累計簽到︰1994 天
連續簽到︰30 天
發表於 5 天前 | 顯示全部樓層 |閱讀模式
VIP精品區,資源無限好賺金任務區,輕松賺金幣
加入VIP,享受高級特權宣傳賺金又升級,超級棒

寶劍與權杖 The.Warrior.Queen.Of.Jhansi., 2019.[MKV / 6.78G] [複製鏈接]

影視分享
分類: 電影
題材: 劇情 
地區: 英國 
語言: 英语 
格式: MKV 
年份: 2019
資源: BT资源
1.jpg - j8 y* }8 }) g' ]& i8 O
% D* Z, e  {, n5 x2 B  Z& V
◎译  名 宝剑与权杖 / Swords and Scepters / Swords and Sceptres: The Rani of Jhansi
. ?! n: P, W' v) B+ L◎片  名 The Warrior Queen of Jhansi
8 f3 y/ L7 {+ Y& @7 O5 U7 X◎年  代 2019' S+ ~6 h7 O* }0 r7 P
◎产  地 英国1 X* r4 F7 v( t/ B
◎类  别 剧情
- f0 E2 D% ?! ^◎语  言 英语: I. l( i; n) u* ]: {5 b9 r4 n
◎上映日期 2019-03-10(温哥华女性电影节)
5 p0 o( }: }( T; T. C◎IMDb评分 3.5/10 from 245 users  E0 m, K! |/ Z7 E( f
◎IMDb链接 https://www.imdb.com/title/tt6916348  K; R$ H2 M8 h+ w% W% r( ]$ `
◎豆瓣评分 0/10 from 0 users
7 Z0 x8 A! R9 n' q- w- h4 Z6 l/ V( l◎豆瓣链接 https://movie.douban.com/subject/27191803/0 {- y* D% d! P+ K/ f
◎片  长 103分钟
' r- q4 p5 g( ^  D. S$ }/ `. b; ?9 j◎导  演 Swati Bhise
9 g1 ?- i1 x* N2 X1 \$ {◎编  剧 Devika Bhise / Swati Bhise / Olivia Emden
4 L; n9 V3 M' E◎主  演 鲁伯特·艾弗雷特 Rupert Everett
# u6 d* _1 u9 D      德里克·雅各比 Derek Jacobi0 t* s7 V& `2 L6 e
      乔迪·梅 Jodhi May
; M9 g, a' N* I& {% q8 _. T      内森奈尔·帕克 Nathaniel Parker! ]* G" A4 }& G3 Z' M# y! ~2 I
      德维卡·贝斯 Devika Bhise
3 [5 A7 I4 ^" w# T* v      Ben Lamb
" w4 n% [# |5 L9 ~: [0 b! `
3 P2 i" ~# ]7 v7 Z( w8 ]7 v) ^4 g+ l+ |1 C" R( }
◎标  签 印度 | 英国 | 2019年上海国际电影节 | 历史 | DerekJacobi | 剧情 | 2019SIFF | 首选9 n6 Y9 M* b3 _, V

# Y7 [& v! v* P' q- G◎简  介5 y4 v2 Q. j- O- Z$ @6 X

9 V; l8 D- X6 b! M8 h  鲁伯特·艾弗雷特、德里克·雅各比加盟[宝剑与权杖](Swords and Scepters,暂译)。主演德维卡·贝斯、乔迪·梅、内森奈尔·帕克等。印度导演斯瓦蒂·贝斯执导,故事聚焦印度“詹西女王”拉克希米巴伊1857年反抗英国东印度公司的起义行动。艾弗雷特、雅各比分饰休·罗斯爵爷、帕默斯顿勋爵。
; Z8 o6 `8 c. E2 O- N' K9 MVideo
/ m: V+ {8 M5 U3 Z4 t2 K; FID : 1
  j( w, V9 U. @7 b( }Format : AVC
/ \- S5 K" b+ O' e& fFormat/Info : Advanced Video Codec# i" H: l. w: m2 N5 I; r0 [! O
Format profile : [email protected]
4 c5 ^+ X. t$ T) F! [+ EFormat settings : CABAC / 4 Ref Frames
) ^% R4 b: o0 o, {" ~, RFormat settings, CABAC : Yes
9 x& m- I7 U: ?% w% Q& CFormat settings, Reference frames : 4 frames
' L  h6 q& a/ P+ C; p: sCodec ID : V_MPEG4/ISO/AVC
4 j6 ?* J( S" I6 yDuration : 1 h 42 min
% R! U! j+ C+ l! S- NBit rate mode : Constant
5 y! ~" M. D8 ~) f+ R% N# zBit rate : 8 813 kb/s
+ Z/ p; H' M4 R. I6 Q7 ^" _% nNominal bit rate : 10 000 kb/s; W0 s, {1 S# K3 m; K; y* c
Width : 1 920 pixels
% S, A- w3 u4 hHeight : 800 pixels* I% W3 t) b5 |. Y6 _2 h
Display aspect ratio : 2.40:1
7 K' g/ a4 r  ?: W- }Frame rate mode : Constant, h  y  V# S" B6 [
Frame rate : 23.976 (24000/1001/189150) FPS/ P7 [3 |7 K; R
Color space : YUV. M% U2 @8 a# w% v2 U
Chroma subsampling : 4:2:03 M) Y: g3 ~6 w; n
Bit depth : 8 bits! G" v* G- \# ?7 \! N) p
Scan type : Progressive& Y; C% ^' g$ ?0 l
Bits/(Pixel*Frame) : 0.239
6 {) e4 B( B7 z) w& a5 YStream size : 6.32 GiB (93%)8 A/ Q. S6 n+ j6 h% v
Default : Yes
& M# ~/ w" x6 [$ h/ c& E  s% ^Forced : No) b2 h7 T$ N3 H! W
Color range : Limited
) l* i# u- Y) i( LColor primaries : BT.7099 a% x) O, h9 C8 ]
Transfer characteristics : BT.709. c9 T% C" k! Y, c. V8 _  ]- _! H. {
Matrix coefficients : BT.7092 {& s. {' K1 b; V2 x
- ]2 Z) K6 p/ W9 E9 W: m) g
Audio  v) N6 W+ x/ D* q; T* S
ID : 23 a. O! s  j; Y* B# p
Format : E-AC-3) {5 v: Y2 o. R1 R& `" N  |
Format/Info : Enhanced AC-3
5 N+ X, s& r# q4 FCommercial name : Dolby Digital Plus
: ^9 T5 H3 ~1 l0 f: @6 KCodec ID : A_EAC3
" A9 |$ `: ~' g! X/ Y. _$ gDuration : 1 h 42 min7 o4 b1 Y" \- f# d1 N" B5 r. W3 J+ y& D
Bit rate mode : Constant. d% W8 D6 U# g6 Y
Bit rate : 640 kb/s0 I4 R' h# s1 f$ _; H$ h
Channel(s) : 6 channels, h4 Y# t4 |7 u) G& \! b
Channel layout : L R C LFE Ls Rs
& u, H: ]2 l; d; k+ X# Z  ASampling rate : 48.0 kHz
/ D) l: m, ^5 k! ~* hFrame rate : 31.250 FPS (1536 SPF)
6 P  [, @9 l& ACompression mode : Lossy
3 [3 ?0 l- n/ e5 s3 H" rStream size : 470 MiB (7%)- w; H0 |6 V) A( W. a* n+ p
Language : English
0 m: a" b/ v2 ~5 {. Z4 gService kind : Complete Main& M1 u1 m$ W. z0 {  R( V( V
Default : Yes
$ }& _6 S& U  K" [$ Q4 i4 ?Forced : No7 O7 ^$ `3 z! y, J1 q" e
0 T3 R2 J" y4 L
Text #1
3 o6 z* v" D" }0 ?' |) `ID : 3; y& h7 f: o; j! Q  v
Format : UTF-8' G4 |7 W& n; G7 s( Z; i
Codec ID : S_TEXT/UTF8/ T  B3 R) g. R* A
Codec ID/Info : UTF-8 Plain Text
' Y( ?3 l1 i$ A7 W7 EDuration : 1 h 35 min
% B, F4 ~( K9 |* _Bit rate : 46 b/s
4 {9 ]2 V2 s# J  C4 p1 {+ u2 XCount of elements : 1040( W& S4 d% P& [. I
Stream size : 33.0 KiB (0%)% v  `' d  K9 _* `
Language : English
% [# u% O4 p3 rDefault : No- L% l3 j! }+ ?8 s+ Y0 L
Forced : No2 s2 `: [4 h2 B& \' T; v
. K5 D* W9 a8 h. F+ }
Text #2
  J: J2 d! K/ G( r6 B4 Y  rID : 4
% Q) C% [2 u" z9 b: U1 F) GFormat : UTF-8, [/ G( g( r: o# r# n$ ~4 Q& A) T0 u9 e
Codec ID : S_TEXT/UTF8
" i% G9 B4 N: b) _% c8 H5 tCodec ID/Info : UTF-8 Plain Text" z# c: u9 J; p3 k  K
Duration : 1 h 35 min
( V4 @* \2 L1 `8 X& ?0 TBit rate : 53 b/s
! |/ Y+ S0 w) C0 tCount of elements : 12599 @9 U3 Z8 ]7 ]* M
Stream size : 37.4 KiB (0%)% p) @- d$ i- C* G) g% c3 i
Title : SDH% x) f6 _. p* {7 R
Language : English& Y# p4 B& }. S
Default : No; l- Q7 J7 |8 [
Forced : No
4 [8 ]; D3 E- z  u, A
$ T' U0 D: |5 A9 i

5 L3 |! l2 X8 U0 U) L: P. K

寶劍與權杖. MKV.torrent

34.46 KB, 下載次數: 8

累計簽到︰2 天
連續簽到︰1 天
發表於 5 天前 | 顯示全部樓層
VIP精品區,資源無限好賺金任務區,輕松賺金幣
加入VIP,享受高級特權宣傳賺金又升級,超級棒
ddddddddddddddddddddddddddddddddddddd
累計簽到︰1234 天
連續簽到︰23 天
發表於 5 天前 | 顯示全部樓層
感謝大大的辛勞分享!我會繼續在WK關注大大的文章!
累計簽到︰1 天
連續簽到︰1 天
發表於 5 天前 | 顯示全部樓層
Thank you for sharing.

回復樓主 親!! 現在是淩晨!妳失眠啦?餓啦?通宵加班?還是想WK啦?

 分享同時學會感恩,一句感謝的話語,就是最大的支持!  歡迎交流討論
您需要登錄後才可以回帖 登錄 | 立即注册

本版積分規則

c重要聲明:本論壇是以即時上載言論的方式運作,WK論壇對所有言論的真實性、立場及版權等,不負任何法律責任。而一切言論只代表發佈者個人意見,並非本網站之立場,讀者及用戶務必自行判斷內容之真實性。 由於本論壇受到「即時上載言論」運作方式所規限,故不能完全監察所有言論,若讀者及用戶發現有內容出現「真實性、立場及版權」等問題,請聯絡我們:[email protected]論壇有權刪除任何言論(刪除前或不會作事先警告及通知)| SiteMap[網站地圖]

發表新帖 返回頂部